#TITLE:Gee;
#SUBTITLE:Dead Master;
#ARTIST:Girls Generation;
#TITLETRANSLIT:;
#SUBTITLETRANSLIT:;
#ARTISTTRANSLIT:;
#CREDIT:;
#BANNER:gee-bn.jpg;
#BACKGROUND:gee-bg.jpg;
#LYRICSPATH:;
#CDTITLE:;
#MUSIC:Gee.ogg;
#OFFSET:-1.274;
#SAMPLESTART:31.170;
#SAMPLELENGTH:12.000;
#SELECTABLE:YES;
#BPMS:0.000=200.698;
#STOPS:;
#BGCHANGES:;
// cache tags:
#FIRSTBEAT:0.500;
#LASTBEAT:327.750;
#SONGFILENAME:Songs/9you/Gee/sdom1923.sm;
#HASMUSIC:1;
#HASBANNER:1;
#MUSICLENGTH:100.810;
// end cache tags

//---------------dance-single - ----------------
#NOTES:
     dance-single:
     :
     Hard:
     1:
     0.873,0.935,1.000,0.149,0.893,379.000,216.000,15.000,0.000,6.000:  // measure 1
0000
0000
2000
0000
0000
0000
0000
0000
0000
0000
0000
0000
3000
0010
0000
0000
,  // measure 2
0000
0100
0000
0000
0020
0000
0000
0000
0000
0000
0000
0000
0000
0030
0000
0100
,  // measure 3
0000
0010
0000
0000
0000
0100
0000
0010
0000
0000
1000
0000
0000
0000
0000
0000
,  // measure 4
0000
0020
0000
0000
0000
0000
0000
0000
0000
0000
0000
0030
0100
0000
0100
0000
,  // measure 5
0010
0000
0000
1000
0000
0000
0100
0010
0000
0000
0010
0000
0000
0000
0000
0002
,  // measure 6
0000
0000
0000
0000
,  // measure 7
0000
0000
0000
0000
0000
0000
0000
0000
0000
0103
0000
0000
0000
0010
0000
0010
,  // measure 8
0000
0000
0000
0000
0000
0100
0000
0001
0000
0000
0000
0010
0000
0010
0000
0000
,  // measure 9
1000
0000
0000
0100
0000
0010
0000
0010
0000
0000
0000
0100
0000
0000
0000
0000
,  // measure 10
0101
1010
0101
0110
,  // measure 11
0000
1001
0000
0000
0110
0000
0000
0000
0100
0001
0000
0000
1010
0000
0000
0000
,  // measure 12
0101
0000
0000
0000
0110
0000
0000
0000
0000
1001
0000
0000
0110
0000
0000
0000
,  // measure 13
0100
0001
0000
0000
0000
0110
0000
0000
0000
0101
0101
0000
0000
0000
0010
1000
,  // measure 14
0000
0000
0000
0000
0101
0000
0000
0000
0110
0000
0000
0000
0000
1001
0000
0000
,  // measure 15
0000
0110
0000
0000
0000
0101
0000
0101
0000
0000
0000
0010
1000
0000
0000
0000
,  // measure 16
0101
0110
1001
0110
,  // measure 17
0000
0101
0000
0000
0000
1010
0000
0000
0101
0000
0000
0000
0101
0000
0000
0000
,  // measure 18
1010
0000
0000
1001
0000
0110
0000
0101
1000
0000
0000
0000
0000
0110
0000
1001
,  // measure 19
0000
0000
0010
0100
0000
0102
0000
1000
0000
0003
0000
0000
0110
0000
0000
0000
,  // measure 20
1001
0000
0000
0100
0000
0101
1000
0111
0000
0000
0000
0000
1001
0000
0101
0000
,  // measure 21
0000
0000
0010
0000
0000
1001
0000
0010
0100
0000
1001
0000
0000
0110
0000
0000
,  // measure 22
0000
1001
0000
0000
0000
0000
0110
0000
0000
1000
0001
0000
0000
0000
0101
0000
,  // measure 23
0000
0010
1000
0000
0000
0101
0000
0101
0000
0000
0000
1010
0000
1011
0000
0000
,  // measure 24
0000
0000
0110
0000
0000
1001
0000
0000
0000
0000
0110
0000
0000
1001
0000
0000
,  // measure 25
0000
0110
0000
0000
0000
1101
0000
0101
0000
0000
0000
0101
0000
0101
0000
0000
,  // measure 26
0000
1010
0000
1000
0001
0000
0110
0000
1001
0000
0000
0000
0000
0110
0000
0110
,  // measure 27
0000
0000
0000
1001
0000
1001
0000
0000
0110
0000
0100
1001
0000
0000
0110
0000
,  // measure 28
0000
1001
1001
0110
0110
0000
1001
1001
,  // measure 29
0000
0000
0000
0110
0000
0110
0000
0000
0101
0000
0000
0000
0000
1001
0000
0000
,  // measure 30
0000
0110
0000
0000
0000
0000
1001
0000
0000
0000
0110
0000
0000
0000
1001
0000
,  // measure 31
0000
1101
0000
0000
0000
0000
0101
0000
0101
0000
0000
0000
1110
0000
1010
0000
,  // measure 32
0000
0000
1010
0000
0000
0000
0101
0000
0000
0100
0010
0000
0000
1000
0010
0000
,  // measure 33
0000
0101
0000
0000
0000
0000
0101
0000
0101
0000
0000
0000
1010
1010
0000
0000
,  // measure 34
0000
0101
0000
0000
0000
0010
0000
0100
0010
0000
0000
0100
0000
0001
0000
0000
,  // measure 35
0000
1001
0000
0110
0000
0001
0000
0101
,  // measure 36
0000
0110
0000
1001
0000
0110
0000
1001
,  // measure 37
0000
0110
0000
0101
0000
0101
0000
0101
,  // measure 38
0000
0000
0001
0000
0001
0000
0010
0000
0000
0010
0000
0100
0000
0010
0000
0000
,  // measure 39
0020
0000
0000
0000
0000
0000
1030
0000
0000
0100
0000
0000
0010
0000
0010
0000
,  // measure 40
0000
0100
0000
0010
0000
0100
0000
0101
,  // measure 41
0000
0110
0000
1001
0000
0110
0000
0101
,  // measure 42
0000
0110
0000
1001
0000
0110
0000
0101
,  // measure 43
0000
0010
0000
0001
0000
0010
0000
0100
0000
0000
0000
0010
0010
0000
0000
1000
,  // measure 44
0000
0000
0000
0100
0000
0000
0000
0010
0000
0000
0100
0000
0000
0000
0010
0000
,  // measure 45
0010
0000
0100
0010
0000
0000
1000
0000
0000
0000
0010
0000
0000
0000
0100
0000
,  // measure 46
0000
0000
0001
0000
0000
0000
0000
0100
0000
0000
0010
0000
0000
0000
0100
0000
,  // measure 47
0000
0000
0010
0000
0010
0000
0000
1000
0000
0000
0000
0000
1000
0010
0000
0000
,  // measure 48
0010
0000
0010
0000
0000
0000
0100
0000
0000
0020
0000
0000
0000
0000
1030
0000
,  // measure 49
0000
0200
0000
0000
0000
0000
0000
0000
0300
0000
0010
0000
0010
0000
0000
0010
,  // measure 50
0000
0000
0101
0000
0000
0000
0110
0000
0000
0000
0000
1001
0000
0000
0110
0000
,  // measure 51
0000
0110
0000
0000
0000
1001
0000
0000
1001
0000
0000
0110
0000
0000
0100
0001
,  // measure 52
0000
0000
0100
0001
0000
0000
0000
1010
0000
0000
0000
0101
0000
0000
0100
0010
,  // measure 53
0000
0000
0000
1001
0000
0000
0000
0110
0000
0000
0000
0101
0000
0000
0100
0001
,  // measure 54
0000
0000
0000
0002
0000
0000
0000
0000
0000
0020
0000
0003
0000
0000
0130
0000
,  // measure 55
0000
0000
1000
0200
0000
0000
0000
0000
0300
0010
0000
0020
0000
0000
0000
0130
,  // measure 56
0000
0000
0000
0020
0000
0000
0000
0000
1030
0000
0100
0000
0000
0000
0010
0000
,  // measure 57
0010
0000
0000
0100
0000
0000
0000
0001
0000
0000
0002
0000
0000
0000
0000
0000
,  // measure 58
0000
0000
0003
0110
0000
0000
0000
0101
0000
0000
1010
0000
0000
0000
0000
0101
,  // measure 59
0000
0101
0010
0000
0000
0000
1001
0000
0000
0000
0000
0110
0000
0000
0000
1001
,  // measure 60
0000
0000
0000
0110
0000
0000
0000
1001
0000
0000
0000
0110
0000
0000
1001
0000
,  // measure 61
0000
0000
0000
0110
0000
0000
0000
0101
0000
0000
0000
1010
0000
0000
0000
0101
,  // measure 62
0000
0000
0000
0101
0000
0000
0000
0000
0000
0110
0000
0000
0000
0000
0000
1001
,  // measure 63
0000
0000
0000
0110
0000
0000
0000
0101
0000
0000
1010
0000
0000
0000
0101
0000
,  // measure 64
0000
0000
0000
1010
0000
0000
0000
0000
0000
0101
0000
0000
0000
0000
1010
0000
,  // measure 65
0000
0000
0101
0000
0000
0000
0100
0010
0000
0000
0000
1101
0000
0000
0000
0110
,  // measure 66
0000
0000
0100
0001
0000
0000
0000
1001
0000
0000
0100
0010
0000
0000
0000
1001
,  // measure 67
0000
1001
0000
0000
0000
0000
0101
0000
0101
0000
0000
0000
1010
0000
0000
0000
,  // measure 68
0101
0000
0000
0010
1000
0000
0000
0000
0101
0000
0000
0000
0110
0000
0000
0000
,  // measure 69
1001
0000
0000
0000
0110
0000
0000
0000
0101
0000
0000
1001
0000
0000
0000
0000
,  // measure 70
0110
0000
0000
0000
0101
0000
0000
0110
0000
0000
0000
0101
0000
0000
0000
0101
,  // measure 71
0000
0101
0000
0000
0000
1010
0000
0000
1010
0000
0000
0000
0101
0000
0000
0100
,  // measure 72
0001
0000
0000
0000
1010
0000
0000
0000
0000
0101
0000
0101
0000
0000
0000
0101
,  // measure 73
0000
0000
0000
0000
0101
0000
0000
0010
1000
0000
1001
0000
0000
0000
0000
0110
,  // measure 74
0000
0000
0000
1001
0000
0000
0000
1001
0000
0000
0000
0110
0000
0000
0000
0100
,  // measure 75
0001
0100
0001
0000
0000
0000
1010
0000
0010
0000
0000
0000
0101
0000
0000
0100
,  // measure 76
0010
1001
0101
0110
,  // measure 77
1001
0000
0110
0000
0101
0000
1010
1001
,  // measure 78
0000
0110
0000
0000
0101
0000
0000
0000
0000
0000
0000
0101
0000
0101
0000
0000
,  // measure 79
0000
1010
0000
0000
1010
0000
0000
0000
1010
0000
0000
0000
0101
0000
0101
0000
,  // measure 80
0000
1010
0000
0000
0001
0100
0000
0000
0000
0000
1010
0000
0000
1001
0000
0000
,  // measure 81
0101
0000
0000
0000
0110
0000
0000
0100
0010
0000
0000
0000
0101
0000
0000
0000
,  // measure 82
0001
0000
0000
0000
0002
0000
0000
0000
0000
0000
0000
0000
0000
0000
0000
0003
;
